日本語
☰ カテゴリ ☆☆☆ ◴新しい映画
Share twitter

クリーブランドショーが、生暖夜の楽しい4ドンナ

MetaData[+]

[STREAM]
index=0
codec_name=h264
codec_long_name=H.264 / AVC / MPEG-4 AVC / MPEG-4 part 10
profile=High
codec_type=video
codec_time_base=1/48
codec_tag_string=avc1
codec_tag=0x31637661
width=480
height=270
coded_width=480
coded_height=270
has_b_frames=2
sample_aspect_ratio=135:134
display_aspect_ratio=120:67
pix_fmt=yuv420p
level=21
color_range=N/A
color_space=unknown
color_transfer=unknown
color_primaries=unknown
chroma_location=left
timecode=N/A
refs=1
is_avc=true
nal_length_size=4
id=N/A
r_frame_rate=24/1
avg_frame_rate=24/1
time_base=1/12288
start_pts=1024
start_time=0.083333
duration_ts=5542400
duration=451.041667
bit_rate=356338
max_bit_rate=N/A
bits_per_raw_sample=8
nb_frames=10825
nb_read_frames=N/A
nb_read_packets=N/A
DISPOSITION:default=1
DISPOSITION:dub=0
DISPOSITION:original=0
DISPOSITION:comment=0
DISPOSITION:lyrics=0
DISPOSITION:karaoke=0
DISPOSITION:forced=0
DISPOSITION:hearing_impaired=0
DISPOSITION:visual_impaired=0
DISPOSITION:clean_effects=0
DISPOSITION:attached_pic=0
TAG:language=und
TAG:handler_name=VideoHandler
[/STREAM]
[STREAM]
index=1
codec_name=aac
codec_long_name=AAC (Advanced Audio Coding)
profile=LC
codec_type=audio
codec_time_base=1/44100
codec_tag_string=mp4a
codec_tag=0x6134706d
sample_fmt=fltp
sample_rate=44100
channels=2
channel_layout=stereo
bits_per_sample=0
id=N/A
r_frame_rate=0/0
avg_frame_rate=0/0
time_base=1/44100
start_pts=0
start_time=0.000000
duration_ts=19891200
duration=451.047619
bit_rate=96007
max_bit_rate=N/A
bits_per_raw_sample=N/A
nb_frames=19425
nb_read_frames=N/A
nb_read_packets=N/A
DISPOSITION:default=1
DISPOSITION:dub=0
DISPOSITION:original=0
DISPOSITION:comment=0
DISPOSITION:lyrics=0
DISPOSITION:karaoke=0
DISPOSITION:forced=0
DISPOSITION:hearing_impaired=0
DISPOSITION:visual_impaired=0
DISPOSITION:clean_effects=0
DISPOSITION:attached_pic=0
TAG:language=und
TAG:handler_name=SoundHandler
[/STREAM]
[STREAM]
index=2
codec_name=unknown
codec_long_name=unknown
profile=unknown
codec_type=data
codec_tag_string=mp4s
codec_tag=0x7334706d
id=N/A
r_frame_rate=0/0
avg_frame_rate=0/0
time_base=1/1000
start_pts=0
start_time=0.000000
duration_ts=1000
duration=1.000000
bit_rate=144
max_bit_rate=N/A
bits_per_raw_sample=N/A
nb_frames=1
nb_read_frames=N/A
nb_read_packets=N/A
DISPOSITION:default=1
DISPOSITION:dub=0
DISPOSITION:original=0
DISPOSITION:comment=0
DISPOSITION:lyrics=0
DISPOSITION:karaoke=0
DISPOSITION:forced=0
DISPOSITION:hearing_impaired=0
DISPOSITION:visual_impaired=0
DISPOSITION:clean_effects=0
DISPOSITION:attached_pic=0
TAG:creation_time=2014-12-29 06:54:21
TAG:language=und
TAG:handler_name=GPAC MPEG-4 OD Handler
[/STREAM]
[STREAM]
index=3
codec_name=unknown
codec_long_name=unknown
profile=unknown
codec_type=data
codec_tag_string=mp4s
codec_tag=0x7334706d
id=N/A
r_frame_rate=0/0
avg_frame_rate=0/0
time_base=1/1000
start_pts=0
start_time=0.000000
duration_ts=1000
duration=1.000000
bit_rate=128
max_bit_rate=N/A
bits_per_raw_sample=N/A
nb_frames=1
nb_read_frames=N/A
nb_read_packets=N/A
DISPOSITION:default=1
DISPOSITION:dub=0
DISPOSITION:original=0
DISPOSITION:comment=0
DISPOSITION:lyrics=0
DISPOSITION:karaoke=0
DISPOSITION:forced=0
DISPOSITION:hearing_impaired=0
DISPOSITION:visual_impaired=0
DISPOSITION:clean_effects=0
DISPOSITION:attached_pic=0
TAG:creation_time=2014-12-29 06:54:21
TAG:language=und
TAG:handler_name=GPAC MPEG-4 Scene Description Handler
[/STREAM]
[STREAM]
index=4
codec_name=unknown
codec_long_name=unknown
profile=unknown
codec_type=data
codec_tag_string=rtp
codec_tag=0x20707472
id=N/A
r_frame_rate=0/0
avg_frame_rate=0/0
time_base=1/90000
start_pts=0
start_time=0.000000
duration_ts=40600530
duration=451.117000
bit_rate=21570
max_bit_rate=N/A
bits_per_raw_sample=N/A
nb_frames=10825
nb_read_frames=N/A
nb_read_packets=N/A
DISPOSITION:default=1
DISPOSITION:dub=0
DISPOSITION:original=0
DISPOSITION:comment=0
DISPOSITION:lyrics=0
DISPOSITION:karaoke=0
DISPOSITION:forced=0
DISPOSITION:hearing_impaired=0
DISPOSITION:visual_impaired=0
DISPOSITION:clean_effects=0
DISPOSITION:attached_pic=0
TAG:creation_time=2014-12-29 06:54:21
TAG:language=und
TAG:handler_name=GPAC ISO Hint Handler
[/STREAM]
[STREAM]
index=5
codec_name=unknown
codec_long_name=unknown
profile=unknown
codec_type=data
codec_tag_string=rtp
codec_tag=0x20707472
id=N/A
r_frame_rate=0/0
avg_frame_rate=0/0
time_base=1/44100
start_pts=0
start_time=0.000000
duration_ts=19894260
duration=451.117007
bit_rate=7838
max_bit_rate=N/A
bits_per_raw_sample=N/A
nb_frames=4098
nb_read_frames=N/A
nb_read_packets=N/A
DISPOSITION:default=1
DISPOSITION:dub=0
DISPOSITION:original=0
DISPOSITION:comment=0
DISPOSITION:lyrics=0
DISPOSITION:karaoke=0
DISPOSITION:forced=0
DISPOSITION:hearing_impaired=0
DISPOSITION:visual_impaired=0
DISPOSITION:clean_effects=0
DISPOSITION:attached_pic=0
TAG:creation_time=2014-12-29 06:54:21
TAG:language=und
TAG:handler_name=GPAC ISO Hint Handler
[/STREAM]
[FORMAT]
nb_streams=6
nb_programs=0
format_name=mov,mp4,m4a,3gp,3g2,mj2
format_long_name=QuickTime / MOV
start_time=0.000000
duration=451.117000
size=27475318
bit_rate=487240
probe_score=100
TAG:major_brand=mp42
TAG:minor_version=1
TAG:compatible_brands=isomiso2avc1mp41mp423gp5
TAG:encoder=Lavf55.33.100
[/FORMAT]
日: 12/29/2014
ユーザー: drawn-hentai
サイズ:480 x 270
眺望:257,000+ views
品質:270P
存続:7:31
カテゴリ: 肛門 黒檀 が、生暖
タグ: グループ性 肛門性 黒檀 が、生暖 漫画 アニメ
ミラー: 24

コメント

Madison Lambert - pornstar of the hour
ビデオを見る
写真を見る